Login
Username:
Password:
Remember Me:
[Signup]
[Recover Account]
Friends
BTScene
Friendly site

Free Courses Online
Friendly site

Anime RG
Friendly site

KaranPC
Friendly site

P2PDL.com
Friendly site

Free Tutorials & Courses
Friendly site
Torrent Details For "Black Panther 2018 720p TS x264 AAC"

Black Panther 2018 720p TS x264 AAC

To download this torrent, you need a BitTorrent client: Vuze or BTGuard
Download this torrent
Download using Magnet Link





Health:
Seeds: 862
Leechers: 133
Completed: 112,157 
Last Checked: 28-04-2018 14:52:11

Uploader Reputation points : 3158
External: Torrent




Write a Review for the Uploader:   15   Say Thanks with one good review:


Details
Name:Black Panther 2018 720p TS x264 AAC
Description:




General
Format                                   : Matroska
Format version                           : Version 4 / Version 2
File size                                : 1.15 GiB
Duration                                 : 2 h 3 min
Overall bit rate                         : 1 326 kb/s

Video
ID                                       : 1
Format                                   : AVC
Format/Info                              : Advanced Video Codec
Format profile                           : [email protected]
Format settings                          : CABAC / 4 Ref Frames
Format settings, CABAC                   : Yes
Format settings, RefFrames               : 4 frames
Codec ID                                 : V_MPEG4/ISO/AVC
Duration                                 : 2 h 3 min
Bit rate                                 : 1 200 kb/s
Width                                    : 1 280 pixels
Height                                   : 456 pixels
Display aspect ratio                     : 2.807
Frame rate mode                          : Constant
Frame rate                               : 23.976 (24000/1001) FPS
Color space                              : YUV
Chroma subsampling                       : 4:2:0
Bit depth                                : 8 bits
Scan type                                : Progressive
Bits/(Pixel*Frame)                       : 0.086
Stream size                              : 1.04 GiB (90%)
Writing library                          : x264 core 148 r2708 86b7198
Default                                  : Yes
Forced                                   : No

Audio
ID                                       : 2
Format                                   : AAC
Format/Info                              : Advanced Audio Codec
Format profile                           : LC
Codec ID                                 : A_AAC-2
Duration                                 : 2 h 3 min
Bit rate                                 : 128 kb/s
Channel(s)                               : 2 channels
Channel positions                        : Front: L R
Sampling rate                            : 44.1 kHz
Frame rate                               : 43.066 FPS (1024 SPF)
Compression mode                         : Lossy
Stream size                              : 113 MiB (10%)
Language                                 : English
Default                                  : Yes
Forced                                   : No








YouTube Video:
Category:Movies
Language:English  English
Total Size:1.15 GB
Info Hash:5A57ED49948A2A97C5C7901C722631F4A42E48F4
Added By:MovieFreak Verified UploaderMovie Pirate
Date Added:11-03-2018 17:14:01
Torrent Status:Torrent Verified


Ratings:Not Yet Rated (Log in to rate it)


Tracker:
udp://tracker.pirateparty.gr:6969/announce

This Torrent also has backup trackers
URLSeedersLeechersCompleted
udp://tracker.pirateparty.gr:6969/announce1703424,682
udp://tracker.opentrackr.org:1337/announce8891,133
http://tracker.opentrackr.org/announce000
udp://tracker.vanitycore.co:6969/announce811510,397
udp://public.popcorn-tracker.org:6969/announce90167,854
udp://9.rarbg.to:2710/announce71716,532
udp://9.rarbg.me:2710/announce71716,532
udp://9.rarbg.com:2770/announce71716,532
udp://inferno.demonoid.pw:3391/announce497244
udp://tracker.internetwarriors.net:1337/announce000
udp://ipv4.tracker.harry.lu:80/announce000
udp://p4p.arenabg.ch:1337/announce000
http://tracker.vanitycore.co:6969/announce811510,397
http://public.popcorn-tracker.org:6969/announce90167,854
udp://tracker.zer0day.to:1337/announce000


File List: 



Warning! Do not Download Torrents Without a VPN!
Your IP Address is .   Location is
Your Internet Provider and Government can track your torrent Activity! Hide your IP ADDRESS with a VPN!
We strongly recommend using SpyOFF VPN to anonymize your Torrenting.It's FREE!
START YOUR FREE TRIAL NOW!


Comments
No comments still posted